#TITLE:Sad Salsa;
#SUBTITLE:;
#ARTIST:Baek Ji Young;
#TITLETRANSLIT:Sad Salsa;
#SUBTITLETRANSLIT:;
#ARTISTTRANSLIT:Baek Ji Young;
#CREDIT:;
#BANNER:Sad Salsa-bn.png;
#BACKGROUND:Sad Salsa-bg.png;
#LYRICSPATH:;
#CDTITLE:pm4cd.png;
#MUSIC:Sad Salsa.mp3;
#OFFSET:-0.020;
#SAMPLESTART:164.896;
#SAMPLELENGTH:20.000;
#SELECTABLE:YES;
#BPMS:0.000=125.010;
#STOPS:;
#BGCHANGES:;
// cache tags:
#FIRSTBEAT:12.500;
#LASTBEAT:472.500;
#SONGFILENAME:Songs/Music V.I.P ^_^/Sad Salsa/Sad Salsa.sm;
#HASMUSIC:1;
#HASBANNER:1;
#MUSICLENGTH:232.314;
// end cache tags

//---------------dance-single - ----------------
#NOTES:
     dance-single:
     :
     Hard:
     12:
     1.000,1.000,1.000,0.103,0.446,1068.000,509.000,24.000,0.000,190.000:
0000
0000
0000
0000
,
0000
0000
0000
0000
,
0000
0000
0000
0000
,
0000
0000
1000
0100
0010
0001
0010
0100
1000
0100
0010
0001
0010
0100
1000
0001
,
1000
0001
1000
0001
1000
0001
0100
0010
0100
0010
0100
0010
0100
0010
1000
0010
,
1000
0010
1000
0010
1000
0010
0100
0001
0100
0001
0100
0001
0100
0001
1000
0100
,
0010
0001
0010
0100
1000
0100
0010
0001
0010
0100
1000
0100
0010
0100
1000
1100
,
0110
0011
1111
0100
0010
0001
0110
1000
0100
0010
0001
0010
0100
1000
0110
0001
,
0010
0100
1001
0100
0010
0001
1100
0001
0010
0100
1000
0100
0010
0001
0010
0100
,
1000
0100
0011
0010
0100
1000
1010
0100
0010
0001
0010
0100
1000
0010
1100
0100
,
0010
0001
0110
0010
0100
1000
0122
1000
0100
1000
0100
1000
0100
1000
0100
1000
,
0100
1000
1133
0000
1010
0000
0111
0000
0011
0000
0110
0000
1100
0000
1110
0000
,
0110
1101
1001
1011
1010
0101
0011
1100
,
0110
1101
0110
1110
0011
1100
0101
0111
,
1010
0000
0000
0000
1110
0000
0000
0000
1100
0000
0000
0000
0011
0000
1100
0000
0011
0000
1100
0000
1000
0100
0010
0001
1000
0100
0010
0001
1000
0100
0010
0001
,
0000
0000
1000
1000
0010
0100
0001
1000
,
0010
0101
1000
1100
0010
1001
0100
0011
,
0001
1010
0010
0101
0100
1010
0010
0101
,
1000
1001
0001
0110
1000
0101
0001
1100
,
0100
1001
1000
1010
0010
0101
0100
0011
,
0001
1100
0010
0101
0010
1001
0010
0101
,
0010
1100
0001
1010
1000
0011
0001
1100
,
0100
0000
0101
0000
1000
0000
0011
0000
0010
0000
0101
1000
0100
0001
1010
0100
,
0001
0010
1101
0000
0100
0000
1010
0000
0100
0000
0011
0000
0100
0000
1010
0000
,
0010
1001
0010
1100
0001
1010
0010
0101
,
0010
1100
0010
0101
0100
1001
0100
1010
,
0010
0110
0010
1100
0001
0110
1000
1010
,
0100
0011
0010
0101
1000
0110
0001
1100
,
0010
0101
0100
1001
0010
0110
0001
1100
,
0010
0011
0100
1001
0100
0110
1000
1010
,
0010
1100
0010
0011
0001
0101
0100
1010
,
1000
1101
0010
1100
0010
0011
0100
1010
,
0010
1011
0100
1010
0100
0011
0100
1010
,
0100
1010
1000
0110
0001
1100
1000
0011
,
0100
1010
0010
1100
1000
1010
0100
0011
,
0100
1011
0100
0110
0010
1001
0100
0011
,
1000
1101
1000
0011
1000
0101
0010
1001
,
1000
0110
0001
0101
1000
0110
1000
0011
,
0100
0000
0221
1000
0001
1000
0000
1000
0001
1000
0331
0000
0101
0000
1010
0000
,
0101
0000
2021
0001
0100
0100
0000
0100
0100
0001
3031
0000
1101
0000
1011
0000
,
1101
1111
1001
0111
1001
1110
0011
1101
,
0110
0111
0110
1110
1100
1011
0101
1101
,
1010
0111
0110
1101
1001
0111
0101
1110
,
1010
1011
1010
1101
0011
1110
0110
0111
,
1001
1011
1100
1101
1010
0111
0110
1011
,
1001
1110
0011
1101
1100
0111
0101
1110
,
1010
1011
0101
1110
0011
0111
0110
1101
,
1100
0000
0000
0000
1010
0000
0000
0000
0101
0000
1010
0000
0000
0000
1010
0000
0000
0000
1010
0000
0000
0000
0000
0000
0000
0000
0000
0000
1000
0100
0010
0001
,
1000
0000
1111
0000
0100
0000
1100
0010
0010
1000
0101
0000
0010
0000
1100
0000
,
0010
0000
0111
0000
0001
0000
1001
0100
0100
1000
0011
0000
0100
0000
1010
0000
,
0100
0000
1101
0000
0010
0000
0110
1000
1000
0010
0101
0000
0010
0000
1001
0000
,
0010
0000
0000
0000
1110
0000
0000
0000
1000
0000
0000
0000
0001
0010
0100
1000
0100
0010
0001
0010
0100
1000
0100
0010
0001
0010
0100
1000
0100
0010
0001
0010
,
0100
1000
0100
0010
1101
0000
0100
0000
0010
0000
0001
0000
0110
0000
1000
0000
0100
0000
0010
0000
0001
0000
0010
0000
0100
0000
1000
0000
0110
0000
0001
0000
,
0010
0100
1001
0100
0010
0001
1100
0001
0010
0100
1000
0100
0010
0001
0010
0100
,
1000
0100
0011
0010
0100
1000
1010
0100
0010
0001
0010
0100
1000
0010
1100
0100
,
0010
0001
0110
0010
0100
1000
0101
1000
0001
1000
0010
1000
0001
1000
0010
1000
,
0001
1000
1001
0000
1010
0000
0111
0000
0011
0000
0110
0000
1100
0000
1110
0000
,
0110
1101
1001
1011
1010
0101
0011
1100
,
0110
1101
0110
1110
0011
1100
0101
0111
,
1010
0000
0000
0000
1110
0000
0000
0000
1100
0000
0000
0000
0001
0000
0000
0000
1000
0000
0000
0000
0001
0010
0100
1000
0001
0010
0100
1000
0001
0010
0100
1000
,
0000
0000
1000
1000
0010
0100
0001
1000
,
0010
0101
1000
0110
0010
0101
0100
1010
,
0001
1010
0010
0101
0100
1010
0010
0101
,
1000
0110
0001
1100
1000
0011
0001
0110
,
0100
1001
1000
0110
0010
0101
0100
1010
,
0001
1010
0010
0101
0100
1010
0010
0101
,
1000
0110
0001
1100
1000
0011
0001
0110
,
0100
1001
1000
0110
0010
0101
0100
1010
,
0001
2002
0100
0010
0100
0010
3103
0010
,
1000
0101
0010
0110
1000
1010
0010
0101
,
0010
1100
0010
0101
0100
0011
0100
1100
,
0010
1010
0010
0101
0100
0110
1000
1001
,
0010
1100
0010
0011
0100
0110
0100
1010
,
0010
0101
0100
1010
0010
0101
0001
0110
,
0010
1100
0100
1010
0100
0011
1000
0101
,
0010
1100
0010
0110
0001
0011
0100
0110
,
1000
1110
0100
1010
0010
0101
0100
1001
,
0010
0111
1000
0110
0010
0101
0100
1010
,
0001
1010
0010
0101
0100
1010
0010
0101
,
1000
0110
0001
1100
1000
0011
0001
0110
,
0100
0111
1000
0110
0010
0101
0100
1010
,
0001
1110
0010
0101
0100
1010
0010
0101
,
1000
0110
0001
1100
1000
0011
0001
0110
,
0100
0000
2102
0010
0100
0010
0000
0010
0100
0010
3103
0000
1001
0000
0110
0000
,
1001
0000
1220
1000
0001
0001
0000
0001
0001
1000
1330
0000
1100
0000
0110
0000
,
0011
0000
2201
0010
0001
0010
0000
0010
0001
0010
3301
0000
1110
0000
0111
0000
,
1110
1111
0110
1110
0110
0111
1100
1101
,
0011
1011
1010
1101
0101
1011
1100
1110
,
0110
0111
0011
1101
0110
0111
1100
1011
,
0101
1110
1010
1101
0101
1110
1010
0111
,
0101
1101
1010
1011
0110
1101
1001
1011
,
1100
1110
0110
0111
0011
1101
0110
0111
,
1100
1011
1010
1110
0101
1101
0110
0111
,
1001
0000
0000
0000
2020
0000
0000
0000
0000
0000
0000
0000
0000
0000
0000
0000
0000
0000
3030
0000
1000
0100
0010
0001
0010
0100
1000
0000
0000
0000
0000
0000
,
0000
0010
1100
0000
0000
0000
0000
0000
0000
0100
0000
0010
0000
0001
0000
0010
,
0100
0000
0000
1000
0000
0000
0100
0000
0000
0000
0000
0000
0000
0000
0000
0000
0000
0000
0000
0000
0000
0000
0000
0000
0000
0000
0000
0000
0000
0000
0010
0000
0100
0000
1000
0000
0000
0000
0000
0000
0000
0000
0000
0000
0000
0000
0000
0000
,
0000
0100
0011
0000
0000
0000
0000
0000
0010
0000
0100
0000
0010
0000
0001
0000
,
1000
0100
1000
0100
0000
0000
0000
0000
0000
0000
0001
0010
0100
1000
0100
0010
,
0001
0010
1100
0000
0000
0011
0000
0000
0110
0000
0101
0000
0000
1100
0000
0000
,
1010
0000
0011
0000
0000
0110
0000
0000
1010
0000
0101
0000
0000
1100
0000
0000
,
0011
0000
1010
0000
0000
0110
0000
0000
0101
0000
0110
0000
0000
1100
0000
0000
,
0011
0000
0220
0000
0000
0000
0000
0000
0000
0000
0000
0000
0000
0000
1330
0100
,
0010
0001
1111
0000
0110
0000
1110
0000
0110
0000
0111
0000
1100
0000
1101
0000
,
0011
1011
1010
1101
0101
1011
1100
1110
,
0110
0111
0011
1101
0110
0111
1100
1011
,
0101
1110
1010
1101
0101
1110
1010
0111
,
0101
1101
1010
1011
0110
1101
1001
1011
,
1100
1110
0110
0111
0011
1101
0110
0111
,
1100
0000
1011
0000
1010
0000
1110
0000
0101
0000
1101
0000
1000
0100
0010
0001
,
0010
0100
0101
0000
0010
0000
0110
0000
1000
0000
1010
0000
0010
0000
0101
0000
,
0010
1100
0010
0101
0100
0011
0100
1100
,
0010
1010
0010
0101
0100
0110
1000
1001
,
0010
1100
0010
0011
0100
0110
0100
1010
,
0010
0101
0100
1010
0010
0101
0001
0110
,
0010
1100
0100
1010
0100
0011
1000
0101
,
0010
1100
0010
0110
0001
0011
0100
0110
,
1000
0000
2000
0000
0000
0000
0200
0000
0000
0000
0020
0000
0000
0000
0000
0001
,
0001
0000
0000
0001
0000
0000
3331
0000
0000
2100
0000
0100
0000
0000
0000
0000
0000
0000
0210
0000
0010
0000
0000
0000
0000
0000
0000
0000
0000
0000
0021
0000
0001
0000
0000
0000
0000
0000
0000
0000
0000
0000
0001
0000
0000
0000
0000
0000
,
0000
3330
1111
0000
0000
0000
0000
0000
0000
0000
0000
0000
0000
0000
0000
0000
;

//---------------dance-single - ----------------
#NOTES:
     dance-single:
     :
     Medium:
     1:
     0.000,0.000,0.000,0.000,0.000,0.000,0.000,0.000,0.000,0.000:
0000
0000
0000
0000
;
